WK綜合論壇, WK综合论坛

查看:106 回復:3 發表於 2020-5-23 23:02:54
本主題由 212love 於 2020-5-25 11:30 解除高亮
累計簽到︰2000 天
連續簽到︰1 天
發表於 2020-5-23 08:48:33 | 顯示全部樓層 |閱讀模式
VIP精品區,資源無限好賺金任務區,輕松賺金幣
加入VIP,享受高級特權宣傳賺金又升級,超級棒

寶劍與權杖 The.Warrior.Queen.Of.Jhansi., 2019.[MKV / 6.78G] [複製鏈接]

影視分享
分類: 電影
題材: 劇情 
地區: 英國 
語言: 英语 
格式: MKV 
年份: 2019
資源: BT资源
1.jpg
4 [2 K% F5 b( g; h1 D( C/ q1 L8 I+ x) c9 s% T7 Z
◎译  名 宝剑与权杖 / Swords and Scepters / Swords and Sceptres: The Rani of Jhansi* n2 p+ O0 \: r! j* {4 G) n" C
◎片  名 The Warrior Queen of Jhansi$ U) @( ~1 n! [& T1 P
◎年  代 20198 c3 Q7 q- k  X* D
◎产  地 英国
, \3 S" u+ k. D1 H" P0 B◎类  别 剧情
* W0 @% u0 a9 b+ q. d. m  [◎语  言 英语5 w5 P- Y. b1 `' o( O
◎上映日期 2019-03-10(温哥华女性电影节)1 o( s2 \9 O# l# S+ A- e8 e
◎IMDb评分 3.5/10 from 245 users' B5 B' Q7 f& Z! b; ^
◎IMDb链接 https://www.imdb.com/title/tt6916348
/ `: I$ N) ^3 R, Z* D◎豆瓣评分 0/10 from 0 users! Y, y: S+ j. T0 t, Z) b+ V' e
◎豆瓣链接 https://movie.douban.com/subject/27191803/$ u: Y* M0 T5 T
◎片  长 103分钟
& D' R  i7 S" S; g◎导  演 Swati Bhise' Z) [% x0 \6 J% T/ `
◎编  剧 Devika Bhise / Swati Bhise / Olivia Emden
) F9 }; V$ f# Z2 l* @◎主  演 鲁伯特·艾弗雷特 Rupert Everett8 {/ y1 ?  k# N' `" {
      德里克·雅各比 Derek Jacobi3 q+ e; q$ h& y8 u9 w; s/ ?: o
      乔迪·梅 Jodhi May1 T* L3 {2 w- G( z' L/ W
      内森奈尔·帕克 Nathaniel Parker4 S- h; b( Y# ]' {% W+ `9 W
      德维卡·贝斯 Devika Bhise
; u; M1 [) g4 W2 b) z4 |- \) A      Ben Lamb
" P+ [: g; a. ^2 u: ?+ W+ Q2 ~6 {1 s# U+ V+ M) U" K

/ u, U' I7 ?7 ^# b* j◎标  签 印度 | 英国 | 2019年上海国际电影节 | 历史 | DerekJacobi | 剧情 | 2019SIFF | 首选
' T. A9 B3 R1 P% P8 q, B4 z  \3 K. W8 ?7 A& j4 H" r) l
◎简  介
) Q$ J1 n7 Z% b! M) O% V. |) d& {* |& b# g1 x" q
  鲁伯特·艾弗雷特、德里克·雅各比加盟[宝剑与权杖](Swords and Scepters,暂译)。主演德维卡·贝斯、乔迪·梅、内森奈尔·帕克等。印度导演斯瓦蒂·贝斯执导,故事聚焦印度“詹西女王”拉克希米巴伊1857年反抗英国东印度公司的起义行动。艾弗雷特、雅各比分饰休·罗斯爵爷、帕默斯顿勋爵。+ z7 N1 R8 T" f: y1 B; R
Video; E' o/ i1 m: U& G% o9 r1 w3 d" f
ID : 14 L% W4 C3 E9 r: ?% M) I9 J. }% @% l
Format : AVC
/ [( E, d; P0 HFormat/Info : Advanced Video Codec8 J  q5 p9 V) z4 n6 A0 r
Format profile : High@L4
6 p8 @9 o6 Z6 ^, E* t4 ]Format settings : CABAC / 4 Ref Frames
2 x# m4 z, O, J% HFormat settings, CABAC : Yes" s- G) K/ ]. G& F  m
Format settings, Reference frames : 4 frames" y0 s0 Q& b# k8 `: ^/ Q
Codec ID : V_MPEG4/ISO/AVC
4 N3 M/ O# H4 ~Duration : 1 h 42 min! t. w! m, K* q& k! S) G
Bit rate mode : Constant
2 t) a% M# A) J7 ~, j3 BBit rate : 8 813 kb/s
+ g& z& ?0 Z3 {1 s( ^6 KNominal bit rate : 10 000 kb/s
4 F, H: ^3 E) Q/ p/ w! I( T9 MWidth : 1 920 pixels) W- o! m. _* y- ?
Height : 800 pixels* P/ w( t+ Y& P8 E6 M
Display aspect ratio : 2.40:1
, a" v: I. j+ LFrame rate mode : Constant
( o0 Q( o. B" X7 u5 }Frame rate : 23.976 (24000/1001/189150) FPS
6 g# Y3 ~1 k. C; qColor space : YUV
) R' O' Y( l7 R9 p" N" }Chroma subsampling : 4:2:04 F' k9 ^' I! P
Bit depth : 8 bits
7 t8 r0 y% n$ G& IScan type : Progressive
9 W' p0 t6 k0 u+ _, w8 I0 KBits/(Pixel*Frame) : 0.239+ i& \- g8 J5 b: ?+ |: Q
Stream size : 6.32 GiB (93%)
4 |. h! k/ M' y4 BDefault : Yes3 g0 o" w" K3 k( L! N& O- Z
Forced : No
, a2 R, e3 l( ~7 D/ A4 NColor range : Limited% i5 |# x0 H8 M, v6 |5 b
Color primaries : BT.7097 J( \" o2 g  e, K5 X
Transfer characteristics : BT.709
5 D. x: j0 \0 W% DMatrix coefficients : BT.709
) u) e& q& n+ E. L' W8 E0 z0 u, B. j) l: S: i% S6 ^. e% K
Audio
7 s( t* h5 t7 d$ m) yID : 2) ?3 A$ v/ U3 |2 E& k' L5 o
Format : E-AC-3
" T  F4 z! N. E$ _9 V; S" i* lFormat/Info : Enhanced AC-3! w7 X, f* m4 P$ F6 N
Commercial name : Dolby Digital Plus" [* E% j* Y, S8 v  i# j2 b" c
Codec ID : A_EAC3! a9 P) v* C; T  Y& F) m
Duration : 1 h 42 min! S. k7 Z: _3 m5 c1 Z' Q
Bit rate mode : Constant8 i  ?6 r, Q8 }& Z! i
Bit rate : 640 kb/s
' d; ?7 x4 R# ~* h% _Channel(s) : 6 channels' p6 y  a3 r$ M8 [% k
Channel layout : L R C LFE Ls Rs
- l3 G6 A1 f( Y$ y# ]+ {" VSampling rate : 48.0 kHz
" @- F; x6 R8 C' _Frame rate : 31.250 FPS (1536 SPF), r* L: C: L# U* I0 B
Compression mode : Lossy: `9 I2 S0 z# O5 V- F2 ~6 t' b
Stream size : 470 MiB (7%)
! J$ u0 `# R) K& R8 d- M8 R3 DLanguage : English& P' o0 A# P7 p/ S
Service kind : Complete Main. D+ L1 f4 ]5 W. J; h2 s4 K
Default : Yes- ^6 x. @3 U! B5 n
Forced : No
- ~; ^0 w! p' Y$ \* A( O- s  Z+ s/ h% P) g2 F* g$ E
Text #1
% Z/ R0 t+ w& Z3 D4 J+ xID : 3& F, \+ Y8 M# h  Z& \5 Y' y
Format : UTF-88 E" E1 H5 w( o( r1 p0 q
Codec ID : S_TEXT/UTF84 E8 e: E9 H$ v- Y+ R
Codec ID/Info : UTF-8 Plain Text
( ]8 F5 K5 y+ y  m: jDuration : 1 h 35 min, F+ P: _4 ~' G: ^" ^
Bit rate : 46 b/s$ f4 Y- f  p8 e8 T* O
Count of elements : 1040
' v: X# j( N& ^! {7 ZStream size : 33.0 KiB (0%)
! l' n" B# ?' l0 i" JLanguage : English$ Z/ m: a+ [- O, }
Default : No
1 E5 G& e" N$ G& T) jForced : No0 ^$ g% n( m  @; F4 p- k; a
. T1 `0 I' ~5 m0 y( c' ?( B
Text #2
9 m! g! U3 V( }" CID : 4
4 o& b* f3 ]3 E: d: ?* pFormat : UTF-8
, c; _  `4 r5 jCodec ID : S_TEXT/UTF8
' B7 v5 P' g' k5 q* g! v0 O9 V$ rCodec ID/Info : UTF-8 Plain Text# e0 S9 p8 s& ]/ S8 K# W" W
Duration : 1 h 35 min
" F% Z  b7 t& }1 I0 ?Bit rate : 53 b/s
) f+ a. T( |: u( m# Y0 Y! `* Q! uCount of elements : 1259: [: @- a- V* Z, U4 K8 A
Stream size : 37.4 KiB (0%)* ^( e9 l3 u8 m7 v9 U. J6 u9 U% l
Title : SDH: I3 J6 h# f4 `2 }) e
Language : English! t) j) I8 b5 i. K$ _
Default : No% ?# q" d* r4 _! _- k( R; N
Forced : No

  v3 y/ A/ F$ C( M
% U9 e4 f. D" i  [% n
+ E7 D) I, ]* P% a

寶劍與權杖. MKV.torrent

34.46 KB, 下載次數: 8

累計簽到︰2 天
連續簽到︰1 天
發表於 2020-5-23 09:46:01 | 顯示全部樓層
VIP精品區,資源無限好賺金任務區,輕松賺金幣
加入VIP,享受高級特權宣傳賺金又升級,超級棒
ddddddddddddddddddddddddddddddddddddd
累計簽到︰1243 天
連續簽到︰32 天
發表於 2020-5-23 10:09:10 | 顯示全部樓層
感謝大大的辛勞分享!我會繼續在WK關注大大的文章!
累計簽到︰1 天
連續簽到︰1 天
發表於 2020-5-23 23:02:54 | 顯示全部樓層
Thank you for sharing.

回復樓主 親!! 現在是後半夜!妳失眠啦?餓啦?通宵加班?還是想WK啦?

 分享同時學會感恩,一句感謝的話語,就是最大的支持!  歡迎交流討論
您需要登錄後才可以回帖 登錄 | 立即注册

本版積分規則

c重要聲明:本論壇是以即時上載言論的方式運作,WK論壇對所有言論的真實性、立場及版權等,不負任何法律責任。而一切言論只代表發佈者個人意見,並非本網站之立場,讀者及用戶務必自行判斷內容之真實性。 由於本論壇受到「即時上載言論」運作方式所規限,故不能完全監察所有言論,若讀者及用戶發現有內容出現「真實性、立場及版權」等問題,請聯絡我們:info@waikeung.net論壇有權刪除任何言論(刪除前或不會作事先警告及通知)| SiteMap[網站地圖]

發表新帖 返回頂部